快捷导航
查看: 702|回复: 6
打印 上一主题 下一主题

[动漫音乐] [BD][自抓自扫][190911]TVアニメ「ギヴン」OPテーマ「キズアト」[BD付初回生産限定盤]/センチミリメンタル [复制链接]

桃田佳世子

LEVEL 4 睿智
UID:363777
精华:0
主题:73
帖子:1541
威望:4560
天使币:142188
宣传度:656
天然°:807
腹黑°:786
精灵:59
豚金:0
阅读权限:55
注册时间:2012-7-23
状态: 不在线

  • TA的每日心情
    开心

    签到天数: 215天[LV.9]以坛为家II

  • 跳转到指定楼层
    1#
    桃田佳世子 发表于 2019-9-11 06:49:15 |只看该作者 |倒序浏览


    ブランド:        ソニーミュージック (このブランドの作品一覧)
    定価:        ¥1,852 (税込¥2,000)
    発売日:        2019/09/11
    メディア:        AUDIO-CD+BD-VIDEO
    JANコード:        4547366415605
    品番:        ESCL-5277~5278
    商品紹介
    TVアニメ『ギヴン』OPテーマはセンチミリメンタルが担当!

    【BD収録内容】
    ●キズアト -Music Video-
    ●TVアニメ「ギヴン」オープニングムービー
    ●TVアニメ「ギヴン」プロモーションムービー
    ●「session」-TVアニメ「ギヴン」劇中映像-

    【封入特典】
    ●アニメ描き下ろしジャケットキャラクターカード(5種のうち1種)
    収録内容
    01.「キズアト」
    02.「まるつけ」
    03.「session/the seasons」
    04.「キズアト -Instrumental-」
    05.「まるつけ -Instrumental-」

    Exact Audio Copy V1.3 from 2. September 2016

    EAC extraction logfile from 11. September 2019, 3:02

    センチミリメンタル / キズアト

    Used drive  : HL-DT-STDVDRAM GH24NSB0   Adapter: 1  ID: 0

    Read mode               : Secure
    Utilize accurate stream : Yes
    Defeat audio cache      : Yes
    Make use of C2 pointers : No

    Read offset correction                      : 6
    Overread into Lead-In and Lead-Out          : No
    Fill up missing offset samples with silence : Yes
    Delete leading and trailing silent blocks   : No
    Null samples used in CRC calculations       : Yes
    Used interface                              : Native Win32 interface for Win NT & 2000

    Used output format : Internal WAV Routines
    Sample format      : 44.100 Hz; 16 Bit; Stereo


    TOC of the extracted CD

         Track |   Start  |  Length  | Start sector | End sector
        ---------------------------------------------------------
            1  |  0:00.00 |  4:05.74 |         0    |    18448   
            2  |  4:05.74 |  4:38.61 |     18449    |    39359   
            3  |  8:44.60 |  1:17.71 |     39360    |    45205   
            4  | 10:02.56 |  4:05.09 |     45206    |    63589   
            5  | 14:07.65 |  4:38.49 |     63590    |    84488   


    Range status and errors

    Selected range

         Filename D:\MUSIC\ギヴン OPテーマ「キズアト」[BD付初回生産限定盤]/センチミリメンタル\センチミリメンタル - キズアト.wav

         Peak level 100.0 %
         Extraction speed 5.6 X
         Range quality 100.0 %
         Test CRC 702C8685
         Copy CRC 702C8685
         Copy OK

    No errors occurred


    AccurateRip summary

    Track  1  not present in database
    Track  2  not present in database
    Track  3  not present in database
    Track  4  not present in database
    Track  5  not present in database

    None of the tracks are present in the AccurateRip database

    End of status report

    ---- CUETools DB Plugin V2.1.6

    [CTDB TOCID: pnjkkoyvJdO7FdjklafN19CAEhY-] disk not present in database
    Submit result: pnjkkoyvJdO7FdjklafN19CAEhY- has been uploaded


    ==== Log checksum 3CD91ABBE0A9F0860D0958FA5BBC9623412AAC39C1CEEE667EFB6FCAD1673DA0 ====


    禁转,tsdm Exclusive,BDMV锁1000积分
    900dpi扫图预览

    自购证明
    游客本帖隐藏的内容需要积分高于 999999 才可浏览,您当前积分为 0 (If you want to read the hidden contents,you should have 999999 “积分”,but you just have 0 “积分”) (もしあなたがこの隠れて内容を読みたいなら、“积分” 0 だけです。)

    【天使币 & 积分 简单获取教程】


    (wav+log+cue+png+BDMV)(431M+2.34G)

    分享到:
    4 2 0 follow
    JsonYeoh
    JsonYeoh

    LEVEL 1 断罪
    UID:418096
    精华:0
    主题:2
    帖子:149
    威望:130
    天使币:296
    宣传度:1
    天然°:0
    腹黑°:0
    精灵:0
    豚金:0
    阅读权限:15
    注册时间:2012-8-31
    来自:马来西亚
    状态: 不在线

  • TA的每日心情
    慵懒

    签到天数: 45天[LV.5]常住居民I

  • 2#
    JsonYeoh 发表于 2019-9-11 19:30:54 |只看该作者
    升级
    等好久了,每次听ED都会心疼啊。。。还有团可爱的棉花糖

    使用道具 举报

    rectanius
    R

    梦幻天使
    UID:1856060
    精华:0
    主题:1
    帖子:195
    威望:445
    天使币:940
    宣传度:51
    天然°:10
    腹黑°:0
    精灵:0
    豚金:0
    阅读权限:130
    注册时间:2019-4-13
    状态: 不在线

  • TA的每日心情
    开心

    签到天数: 60天[LV.6]常住居民II

  • 3#
    rectanius 发表于 2019-9-12 17:43:40 |只看该作者
    Arigatou

    使用道具 举报

    kistya

    梦幻天使
    UID:405720
    精华:0
    主题:0
    帖子:2540
    威望:2414
    天使币:3203
    宣传度:200
    天然°:69
    腹黑°:57
    精灵:0
    豚金:0
    阅读权限:130
    注册时间:2012-8-22
    状态: 不在线

  • TA的每日心情
    开心

    签到天数: 810天[LV.Master]伴坛终老

  • 4#
    kistya 发表于 7 天前 |只看该作者
    谢谢分享

    使用道具 举报

    DINO-JOKER
    T

    梦幻天使
    UID:594959
    精华:0
    主题:6
    帖子:216
    威望:1122
    天使币:4023
    宣传度:145
    天然°:100
    腹黑°:100
    精灵:0
    豚金:0
    阅读权限:130
    注册时间:2013-2-8
    来自:天堂
    状态: 不在线

  • TA的每日心情
    郁闷

    签到天数: 86天[LV.6]常住居民II

  • 5#
    DINO-JOKER 发表于 5 天前 |只看该作者
    0-0,感谢分享
    とにかく この世に生まれたからには、 何か1つ 足跡を 残したい

    使用道具 举报

    fatethelife

    梦幻天使
    UID:13583
    精华:0
    主题:8
    帖子:521
    威望:709
    天使币:242
    宣传度:56
    天然°:12
    腹黑°:1
    精灵:0
    豚金:0
    阅读权限:130
    注册时间:2011-2-10
    状态: 不在线

  • TA的每日心情

    签到天数: 67天[LV.6]常住居民II

  • 6#
    fatethelife 发表于 4 天前 |只看该作者
    特别感谢分享这个的啦 真的非常喜欢这个片子!

    使用道具 举报

    cometdoremi
    亞櫞

    LEVEL 5 美德
    UID:278006
    精华:0
    主题:0
    帖子:2524
    威望:2636
    天使币:14923
    宣传度:3
    天然°:45
    腹黑°:44
    精灵:0
    豚金:0
    阅读权限:40
    注册时间:2012-5-5
    来自:澎湖
    状态: 不在线

  • TA的每日心情
    奋斗

    签到天数: 1768天[LV.Master]伴坛终老

  • 7#
    cometdoremi 发表于 昨天 18:26 |只看该作者
    謝謝分享!這部真的是超級好看!

    使用道具 举报

    您需要登录后才可以回帖 登录 | 注册

    加天使同城QQ群,有威望奖励~

    回顶部